#TITLE:Holy Orders;
#SUBTITLE:~Magna Trick Re-edit~;
#ARTIST:Magna Trickie;
#TITLETRANSLIT:;
#SUBTITLETRANSLIT:;
#ARTISTTRANSLIT:;
#CREDIT:;
#BANNER:Holy_Orders.png;
#BACKGROUND:Holy_Orders-bg.png;
#LYRICSPATH:;
#CDTITLE:MagnaTricktittle!!.png;
#MUSIC:Holy_Orders.mp3;
#OFFSET:-0.240;
#SAMPLESTART:5.040;
#SAMPLELENGTH:12.000;
#SELECTABLE:YES;
#BPMS:0.000=136.020,190.000=272.041,254.000=136.020,306.000=272.040,370.000=136.020;
#STOPS:622.750=1.800
;
#BGCHANGES:;
// cache tags:
#FIRSTBEAT:1.500;
#LASTBEAT:624.000;
#SONGFILENAME:Songs/Music V.I.P ^_^/(Magna Trick) Holy_Orders v2/Holy_Orders.sm;
#HASMUSIC:1;
#HASBANNER:0;
#MUSICLENGTH:260.700;
// end cache tags

//---------------dance-single - ----------------
#NOTES:
     dance-single:
     :
     Challenge:
     13:
     1.000,1.000,1.000,0.196,1.000,1961.000,438.000,51.000,0.000,12.000:
0000
0000
0000
2002
0000
0000
0000
0000
,
0000
0000
0000
0000
0000
0000
0000
3003
,
0000
0000
0000
0001
1000
0000
0000
0000
0000
0000
0000
0000
0000
0000
0000
0000
0000
0000
0000
0000
0000
0000
0000
0000
0000
0000
0000
0000
0000
0000
0000
0000
0000
0000
0000
0000
0000
0000
0000
0000
0000
0000
0000
0000
0000
0000
0000
0000
,
0000
1111
0011
1100
0000
0000
0000
0000
,
1001
0000
0000
1000
0000
0000
0001
0000
0000
1000
0000
0000
0100
0000
0000
0010
0000
0000
0001
0000
0000
0010
0000
0000
0100
0000
0000
1000
0000
0000
0010
0000
0000
1000
0000
0000
0110
0000
0001
0000
1000
0000
0010
0000
0100
0000
0001
0000
,
1010
0000
0000
0100
0000
0000
0001
0000
0000
0010
0000
0000
0100
0000
0000
1000
0000
0000
0010
0000
0000
0100
0000
0000
0001
0000
0000
0100
0000
0000
0010
0000
0000
1000
0000
0000
0101
0000
0010
0000
0001
0000
1000
0000
0100
0000
0010
0000
,
1001
0000
0000
0100
0000
0000
0010
0000
0000
1000
0000
0000
0010
0000
0000
0100
0000
0000
0001
0000
0000
0100
0000
0000
1000
0000
0000
0100
0000
0000
0010
0000
0000
1000
0000
0000
0011
0000
1000
0000
0100
0000
0010
0000
0001
0000
0010
0000
,
1100
0000
0000
0010
0000
0000
0100
0000
0000
1000
0000
0000
0001
0000
0000
0010
0000
0000
0100
0000
0000
1000
0000
0000
0001
0000
0000
0010
0000
0000
0100
0000
1000
0000
0001
0000
1010
0000
0100
0000
1000
0000
0001
0000
0010
0000
0100
0000
,
2002
0000
0000
0000
0000
0000
0000
0000
0000
0000
0000
0000
3003
0000
0000
0000
0000
0000
0000
0000
0000
0000
0000
0000
0110
0000
0000
0001
0000
0000
1000
0000
0000
0100
0000
0000
0010
0000
0001
0000
0010
0000
0100
0000
1000
0000
0100
0000
,
1001
0000
0000
0010
0000
0000
1000
0000
0100
0000
0010
0000
0001
0000
0010
0000
0100
0000
1000
0000
0000
0010
0000
0000
1001
0000
0000
0010
0000
0000
0100
0000
1000
0000
0001
0000
1000
0000
0100
0000
0010
0000
0100
0000
0000
1000
0000
0000
,
0101
0000
0000
0010
0000
0000
0100
0000
1000
0000
0100
0000
0010
0000
0100
0000
0001
0000
0100
0000
0000
0010
0000
0000
1001
0000
0000
0001
0000
0000
1000
0000
0100
0000
0010
0000
0100
0000
1000
0000
0001
0000
0010
0000
0100
0000
0010
0000
,
1001
0000
0000
0010
0000
0000
0100
0000
1000
0000
0010
0000
0100
0000
0001
0000
0010
0000
0100
0000
0000
1000
0000
0000
0011
0000
0000
0100
0000
0000
0010
0000
1000
0000
0100
0000
0010
0000
0001
0000
0100
0000
0010
0000
1000
0000
0100
0000
,
0022
0000
0000
0000
0000
0000
0000
0000
0000
0000
0000
0000
0100
0000
0000
0000
0000
0000
0000
0000
0000
0000
0000
0000
0133
0000
0000
0000
0000
0000
0000
0000
0000
0000
0000
0000
0100
0000
0000
0001
0000
0000
0010
0000
0100
0000
1000
0000
,
0002
0000
0000
0000
1000
0000
0000
0000
1013
0000
0000
0110
0000
0000
1001
0000
,
0011
0000
1000
0000
0100
0000
1010
0000
0001
0000
0010
0000
1100
0000
0001
0000
1010
0000
0100
0000
0010
0000
1100
0000
0010
0000
0001
0000
1100
0001
1000
0001
,
1100
0000
0000
0001
0000
0000
0010
0000
0000
0101
0000
0000
1000
0000
0000
0010
0000
0000
1100
0000
0000
0001
0000
0000
1100
0000
0000
0010
0000
0000
1000
0000
0000
0100
0000
0000
0010
0000
0001
0000
0010
0000
0100
0000
1000
0000
0100
0000
,
1001
0100
0010
1001
0100
1000
0101
0010
0101
1000
0001
0100
1001
0100
1001
1001
,
1001
0000
0010
0000
0100
0000
1001
0000
0010
0000
0001
0000
0110
0000
1000
0000
0101
0000
1000
0000
0110
0000
1000
0000
0101
0000
1000
0000
0011
1000
0100
0010
,
1100
0001
0010
1100
0010
0100
1001
0100
0011
1000
0010
1100
0001
1000
0110
0001
,
1001
0000
0100
0000
0010
0000
1000
0000
0000
0110
0000
0000
1000
0000
0000
0001
0000
0000
0110
0000
0000
0001
0000
0000
0110
0000
0000
1000
0000
0000
0110
0000
0000
1000
0000
0000
0101
0000
1000
0000
0100
0000
1010
0000
0001
0000
1000
0000
,
0101
0000
0010
0001
0000
0000
0001
0000
0000
1010
0000
0000
0100
0000
0000
1000
0000
0000
0011
0000
0000
0100
0000
0000
1001
0000
0000
0100
0000
0000
0010
0000
0000
1001
0000
0000
0100
0000
0000
0001
0000
0000
1001
0000
0100
0000
0010
0000
,
1001
0000
0000
0100
0000
0000
0010
0000
0000
0001
0000
0000
0110
0000
0000
0001
0000
0000
1000
0000
0000
0010
0000
0000
1100
0000
0000
0001
0000
0000
1000
0000
0000
0010
0000
0000
1001
0000
0000
0100
0000
0000
0010
0000
0001
0000
0010
0000
,
0200
0000
0000
0000
1000
0000
0000
0000
1000
0000
0000
0000
1000
0000
0000
0000
0001
0000
0001
0001
0301
0000
0000
0000
2000
0000
0000
0000
0000
0000
0000
0000
,
0002
0000
3000
0000
0100
0000
1003
0000
1000
0001
1100
0001
1100
0001
1010
0001
,
1010
0001
1010
0001
1010
0001
0110
0001
0110
0001
0110
1000
0101
1000
0101
1000
,
0101
1000
0011
1000
0011
1000
0011
1000
0110
1000
0011
1000
0011
1000
0110
1000
,
0101
1000
0101
1000
0011
1000
0101
1000
0011
1000
0110
0001
0110
0001
0110
0001
,
0110
1000
0110
1000
0110
1000
0110
0010
1001
0010
1001
0010
1001
0010
1001
0010
,
1001
0100
1001
0100
1001
0100
1001
0100
1001
0100
1001
0010
1100
0001
1100
0001
,
1100
0001
1100
0001
1100
0001
1100
1000
0011
1000
0011
1000
0011
1000
0011
1000
,
0011
1000
0011
0100
1001
0100
1001
0100
1001
0010
1001
0010
1001
0010
1001
0010
,
0110
0000
0000
0100
0000
0000
1001
0000
0000
0100
0000
0000
1100
0000
0000
0100
0000
0000
0011
0000
0000
0100
0000
0000
0220
0000
0000
0000
0000
0000
0000
0000
0000
0000
0000
0000
0330
0000
0000
0000
0000
0000
0001
0000
0010
0000
0100
0000
,
1000
0000
0000
0000
0000
0000
0000
0000
0000
0001
1000
0001
1000
0000
0000
0000
0000
0000
0000
0000
0000
0100
1000
0001
,
0010
0000
0100
1000
0000
0000
0010
0000
0000
0001
0000
0000
0000
0000
0000
0000
0000
0000
0000
0000
0000
0000
0000
0000
1010
0000
0000
0000
0000
0000
0000
0000
0000
0000
0000
0000
0100
0000
0000
0010
0000
0000
0100
0000
0000
0001
0000
0000
,
1100
0000
0000
1001
0000
0000
0000
0000
1001
0000
0000
0110
0000
0000
1001
0000
,
1000
0000
0000
0100
0000
0000
0010
0000
0000
0001
0000
0000
0010
0000
0000
0100
0000
0000
1000
0000
0000
0010
0000
0000
1100
0000
0000
0001
0000
0000
0100
0000
0000
0010
0000
0000
1000
0000
0000
0100
0000
0000
1000
0000
0001
0000
0010
0000
,
0100
0000
0000
1000
0000
0000
0100
0000
0000
0010
0000
0000
0001
0000
0000
0100
0000
0000
0001
0000
0010
0000
0100
0000
1000
0000
0000
0100
0000
0000
0010
0000
0000
0001
0000
0000
1100
0000
0000
0010
0000
0000
0100
0000
0000
0010
0000
0000
,
1001
0000
0000
1001
0000
0000
1001
0000
0000
1001
0000
0000
0100
0000
0000
0010
0000
0000
1000
0000
0010
0000
0100
0000
0001
0000
0000
0100
0000
0000
0010
0000
0000
1000
0000
0000
0100
0000
0010
0000
0001
0000
0100
0000
0010
0000
1000
0000
,
0100
0010
0001
0100
1001
0010
0001
1000
0110
0000
0000
1001
0000
0000
1100
0000
,
0001
0000
0000
1000
0000
0000
0001
0000
0000
1000
0000
0000
0001
0000
0000
1000
0000
0000
0001
0000
0010
0000
0100
0000
1000
0000
0000
0000
0000
0000
0000
0000
0000
0000
0000
0000
0000
0000
0000
0000
0000
0000
0000
0000
0000
0000
0000
0000
,
0101
0000
0000
0000
0010
0000
1000
0000
0100
0000
0000
1000
0000
0000
0001
0000
,
0100
0010
1000
0001
0220
0000
0000
0000
0330
0000
0001
0010
0100
1000
0010
1000
,
0100
0000
0000
0010
0000
0000
0001
0000
0000
0100
0000
0000
1000
0000
0000
0100
0000
0000
0001
0000
0000
0010
0000
0000
1000
0000
0001
0000
0010
0000
0100
0000
0010
0000
0100
0000
1000
0000
0100
0000
0010
0000
0100
0000
0010
0000
0001
0000
,
0100
0010
1000
0100
0010
0001
0010
0100
1000
0100
0010
0001
2200
0000
0000
0000
0000
0000
3300
0000
0000
0000
0000
0000
,
0001
0000
0000
0000
1000
0000
0100
0000
1000
0000
0000
0001
0000
0000
0100
0000
,
0001
1000
0100
0010
0001
0010
0100
1000
0100
0000
0000
0010
0000
0000
0011
0000
,
0110
1100
0101
1010
0110
0000
0110
0000
,
1001
1010
0202
0000
,
0313
0000
1000
0010
0000
0110
0001
0100
,
1000
0010
0100
0001
1000
0110
1000
0100
,
1000
0010
0100
0001
1000
0110
0010
0001
,
0010
0000
0100
0000
1000
0000
0010
0001
1000
0000
0101
0000
0010
0000
0001
0000
,
0100
0010
0100
0001
1000
0011
1000
0100
,
0010
0000
0001
0000
0010
0000
0100
0001
1000
0000
0011
0000
0100
0000
0001
0000
,
0100
1000
0100
0001
0010
1001
0010
0001
,
1001
0010
1000
0101
0010
1001
0100
0010
,
1000
0100
0010
1000
0100
0011
1000
0100
,
1000
0000
0001
0000
1000
0000
1000
0000
0010
0000
1100
0000
0001
0000
0100
0010
,
1000
0100
0010
0001
0100
0010
1000
0100
0010
0000
0011
0000
0100
0000
0010
0000
,
0100
0000
0001
0000
0100
1000
0010
0100
0010
0000
1100
0000
0010
0000
0001
0000
,
0100
0000
1000
0000
0100
0000
0001
1000
0010
0000
1001
0000
0010
0000
0001
0000
,
1000
0100
1000
0100
0010
0001
0100
0010
0100
0010
0200
0000
0010
0000
0000
0000
,
0301
1000
0100
0000
,
0001
0000
0000
0000
2002
0000
3103
0010
,
1000
0100
1000
0001
0100
0010
1000
0100
,
1000
0000
0000
0000
0000
0000
0000
0000
0000
0000
0000
0000
0000
0000
0000
0000
0000
0000
0000
0000
0000
0000
0000
0000
0010
0000
0000
0000
0000
0000
0000
0000
0000
0000
0000
0000
0000
0000
0000
0000
0000
0000
0000
0000
0000
0000
0000
0000
0100
0000
0000
0000
0000
0000
0000
0000
0000
0000
0000
0000
0000
0000
0000
0000
0000
0000
0000
0000
0000
0000
0000
0000
0001
0000
0000
0000
0000
0000
0000
0000
0000
0000
0000
0000
0000
0000
0000
0000
0000
0000
0000
0000
0000
0000
0000
0000
1001
0000
0000
0000
0000
0000
0000
0000
0000
0000
0000
0000
0100
0000
0000
0000
0000
0000
0000
0000
0000
0000
0000
0000
0010
0000
0000
0000
0000
0000
0000
0000
0000
0000
0000
0000
0001
0000
0000
0000
0000
0000
0000
0000
0000
0000
0000
0000
1010
0000
0000
0000
0000
0000
0000
0000
0100
0000
0000
0000
0000
0000
0000
0000
0010
0000
0000
0000
0000
0000
0000
0000
0001
0000
0000
0000
0000
0000
0000
0000
0000
0000
0000
0000
1000
0000
0000
0000
0000
0000
0100
0000
0000
0000
0000
0000
,
1010
0000
0000
0000
0000
0000
0001
0000
0000
0000
0000
0000
0000
0000
0000
0000
0000
0000
0000
0000
0000
0000
0000
0000
1000
0000
0000
0000
0000
0000
0000
0000
0100
0000
0000
0000
0000
0000
0000
0000
0010
0000
0000
0000
0000
0000
0000
0000
0101
0000
0000
0000
0000
0000
0000
0000
0000
0000
0000
0000
1000
0000
0000
0000
0000
0000
0000
0000
0000
0000
0000
0000
0100
0000
0000
0000
0000
0000
0000
0000
0000
0000
0000
0000
0010
0000
0000
0000
0000
0000
0000
0000
0000
0000
0000
0000
1001
0000
0000
0000
0000
0000
0000
0000
0000
0000
0000
0000
0000
0000
0000
0000
0000
0000
0000
0000
0000
0000
0000
0000
0000
0000
0000
0000
0000
0000
0000
0000
0000
0000
0000
0000
0001
0000
0000
0000
0000
0000
0000
0000
0000
0000
0000
0000
0000
0000
0000
0000
0000
0000
0000
0000
0000
0000
0000
0000
0000
0000
0000
0000
0000
0000
0000
0000
0000
0000
0000
0000
1000
0000
0000
0000
0000
0000
0000
0000
0000
0000
0000
0000
0000
0000
0000
0000
0000
0000
0000
0000
0000
0000
0000
0000
,
1000
0100
1000
0001
0010
0100
0010
0001
2000
0000
0000
0000
0000
3000
0000
0000
,
0220
0000
0000
0000
0000
0000
0000
0000
0000
0000
0000
0000
0330
0000
0000
0000
0000
0000
0000
0000
0000
0000
0000
0000
0001
0000
0000
0000
0000
0000
0000
0000
0000
1000
0000
0000
0000
0000
0000
0000
0000
0000
0001
0000
0100
0000
0010
0000
,
1000
0100
0010
0001
0000
0000
0100
0000
0000
0010
0000
0000
0220
0000
0000
0000
0000
0000
0330
0000
0000
0000
0000
0000
,
2002
0000
0000
0000
3103
0000
0000
0000
1000
0000
0000
0001
0000
0000
1000
0000
,
0000
0100
0000
0000
0010
0001
0100
0001
0100
0000
0000
0001
0000
0000
1000
0000
,
0100
0000
0000
0000
0000
0000
0000
0000
0000
1000
0000
0000
0000
0000
0000
0000
0000
0000
0001
0000
0000
0000
0000
0000
1000
0000
0100
0000
0010
0000
0001
0000
0100
0000
0010
0000
1000
0000
0100
0000
0001
0000
0100
0000
1000
0000
0010
0000
,
1000
0100
0010
0001
0100
0010
1000
0000
0000
0001
0000
0000
2002
0000
0000
0000
0000
0000
3003
0000
0000
0000
0000
0000
,
2002
0000
0000
0010
3003
0000
0100
0000
0220
0000
1330
0001
1000
0001
1000
0001
,
1100
0001
1000
0100
1010
0001
0010
0100
0011
0100
1000
0001
0100
0010
0100
0001
,
1000
0100
1000
0010
0100
0001
0010
0100
1000
0010
0100
0001
2020
0000
0000
0000
0000
0000
3030
0000
0000
0000
0000
0000
,
0001
0000
0000
0000
1000
0000
0000
0000
0100
0010
0001
0000
1001
0000
0010
0000
,
0100
0010
1001
0100
0010
0001
0110
1000
,
0100
0000
0000
0010
0000
0000
0101
0000
0000
0010
0000
0000
0100
0000
0000
1000
0000
0000
1100
0000
0010
0000
0001
0000
,
0100
0000
0010
0000
1000
0000
0101
0000
0010
0000
0001
0000
0100
0000
1000
0010
0000
0000
0101
0000
0000
1000
0000
0000
,
0010
0100
1001
0010
0100
0001
1001
0100
,
1000
0100
0011
1000
0010
0100
1010
0100
,
0001
1000
0100
0010
0001
0100
0010
1000
0100
0010
0001
0100
,
0010
0000
1000
0000
0001
0000
0110
0000
0000
1000
0000
0000
0100
0000
0000
0010
0000
0000
0101
0000
0000
0010
0000
0000
,
0100
0000
0000
1000
0000
0000
1100
0000
0000
0010
0000
0000
0001
0000
0010
0000
0100
0000
1010
0000
0100
0000
0010
0000
,
0001
0100
0010
1001
0100
0010
0001
0010
0100
1001
0100
0010
,
0001
1000
0100
1010
0001
0100
1000
0100
0001
1010
0100
1000
,
0100
0010
0001
0110
1000
0100
0001
0010
0100
1001
0100
0010
,
0001
0000
0100
0000
0001
0000
1010
0000
0100
0000
0010
0000
0001
0000
0000
1000
0000
0000
1001
0000
0000
1000
0000
0000
,
0100
0001
1100
0001
0010
1000
1001
1000
,
0010
0001
0110
0001
0010
0100
1100
1000
,
0100
0000
0010
0000
0101
0000
0010
0000
2002
0000
0000
0000
3103
0010
1100
0010
,
0001
1000
0100
1010
0001
1000
0100
0010
0001
1010
0100
0010
0001
0100
0010
1100
0001
0100
0010
1000
0001
1100
0010
1000
,
0001
0100
0010
0101
0010
1000
0100
1000
0100
1010
0001
0010
0001
0100
0010
0100
0010
1000
0001
1000
0001
0100
0010
1000
,
0010
1000
0100
1010
0001
0010
0100
1000
0100
1010
0001
0100
0010
1000
0100
1010
0001
0100
1000
0100
0001
1010
0100
1000
,
0010
0100
0001
1010
0100
0010
0001
0100
0001
1010
0100
0010
0001
0100
0001
1010
0100
0010
0001
0010
0001
1100
0010
0100
,
0010
0100
0001
1010
0000
0000
0100
0000
0000
1010
0000
0000
0001
0000
0000
1010
0000
0000
0100
0000
0000
1010
0000
0000
,
0001
0000
0000
0000
0000
0000
0000
0000
0000
0000
0000
0000
1000
0000
0000
0000
0000
0000
0000
0000
0000
0000
0000
0000
0101
0000
0000
0000
0000
0000
0000
0000
0000
0000
0000
0000
0010
0000
0000
0000
0000
0000
0000
0000
0000
0000
0000
0000
0001
0000
0000
0000
0000
0000
0000
0000
0000
0000
0000
0000
1000
0000
0000
0000
0000
0000
0000
0000
0000
0000
0000
0000
0101
0000
0000
0000
0000
0000
0000
0000
0000
0000
0000
0000
0010
0000
0000
0000
0000
0000
0000
0000
0000
0000
0000
0000
0001
0000
0000
0000
0000
0000
0000
0000
1000
0000
0000
0000
0000
0000
0000
0000
0100
0000
0000
0000
0000
0000
0000
0000
1010
0000
0000
0000
0000
0000
0000
0000
0001
0000
0000
0000
0000
0000
0000
0000
1000
0000
0000
0000
0000
0000
0000
0000
0100
0000
0000
0000
0000
0000
0000
0000
0010
0000
0000
0000
0000
0000
0000
0000
0001
0000
0000
0000
0000
0000
0000
0000
1001
0000
0000
0000
0000
0000
0000
0000
0100
0000
0000
0000
0010
0000
0000
0000
0000
0000
0001
0000
0000
0000
0000
0000
,
0010
0000
0000
0000
0000
0000
0000
0000
0000
0000
0000
0000
0000
0000
0000
0000
0000
0000
0000
0000
0000
0000
0000
0000
0000
0000
0000
0000
0000
0000
0000
0000
0000
0000
0000
0000
0001
0000
0000
0000
0000
0000
0000
0000
0000
0000
0000
0000
0000
0000
0000
0000
0000
0000
0000
0000
0000
0000
0000
0000
0000
0000
0000
0000
1000
0000
0000
0000
0000
0000
0000
0000
0000
0000
0000
0000
0000
0000
0000
0000
0000
0000
0000
0000
0000
0000
0000
0000
0000
0000
0000
0000
0000
0000
0000
0000
0000
0000
0000
0000
0000
0000
0100
0000
0000
0000
0000
0000
0000
0000
0000
0000
0000
0000
0000
0000
0000
0000
0000
0000
0000
0000
0000
0000
0000
0000
0000
0000
0000
0000
0000
0000
0010
0000
0000
0000
0000
0000
0000
0000
0000
0000
0000
0000
0000
0000
0000
0000
0000
0000
0000
0000
0000
0000
0000
0000
0000
0000
0000
0000
0000
0000
0001
0000
0000
0000
0000
0000
0000
0000
0000
0000
0000
0000
0000
0000
0000
0000
0000
0000
0000
0000
0000
0000
0000
0000
0000
0000
0000
0000
0000
0000
,
0000
0000
0000
0000
0000
0000
0010
0000
0000
0000
0000
0000
0000
0000
0000
0000
0000
0000
0000
0000
0000
0000
0000
0000
0000
0000
0000
0000
0000
0000
0000
0000
0000
0000
0000
0000
0100
0000
0000
0000
0000
0000
0000
0000
0000
0000
0000
0000
0000
0000
0000
0000
0000
0000
0000
0000
0000
0000
0000
0000
0000
0000
0000
0000
0000
0000
0000
0000
0000
0000
0000
0000
2000
0000
0000
0000
0000
0000
0000
0000
3200
0000
0000
0000
0000
0000
0000
0000
0320
0000
0000
0000
0000
0000
0000
0000
0032
0000
0000
0000
0000
0000
0000
0000
0000
0000
0000
0000
0000
0000
0000
0000
0000
0000
0000
0000
0000
0000
0000
0000
0000
0000
0000
0000
0000
0000
0000
0000
0003
0000
0000
0000
0000
0000
0000
0000
0000
0000
0000
0000
0000
0000
0000
0000
0000
0000
0000
0000
0000
0000
0000
0000
0000
0000
0000
0000
0000
0000
0000
0000
0000
0000
0000
0000
0000
0000
0000
0000
0000
0000
0000
0000
0000
0000
0000
0000
0000
0000
0000
0000
0000
0000
0000
0000
0000
0000
0000
0000
0000
0000
0000
0000
,
0101
1000
0100
0010
0001
1000
0100
0010
0001
1000
0100
0010
0101
0010
0001
0100
0010
1000
0001
0100
0010
1000
0001
0100
,
1001
0010
0100
0001
1000
0010
0100
0001
1000
0010
0100
0001
0110
1000
0100
0010
0001
1000
0100
0010
0001
1000
0100
0010
,
1100
0001
0010
0100
1000
0001
0010
0100
1000
0001
0010
0100
1001
0100
0010
0100
0010
0100
0010
0100
0010
0100
0010
0100
,
1001
0010
0001
0100
0010
1000
0100
0010
0001
0100
0010
1000
0100
0010
0001
0100
0010
1000
0100
0010
0001
0100
0010
1000
,
0010
0000
0000
0000
0000
0000
0000
0000
0000
0001
0000
0000
0000
0000
0000
0000
0000
0000
1000
0000
0000
0100
0000
0000
0010
0000
0000
0001
0000
0000
0010
0000
0000
0100
0000
0000
1000
0000
0000
0100
0000
0000
0010
0000
0001
0000
1000
0000
,
0200
0000
0000
0300
1001
0000
0100
1000
,
0001
0000
0000
0010
0000
0000
0100
0000
0010
0001
0010
0200
0000
0000
0000
0000
,
0300
0000
0001
0000
1000
0100
0000
0010
0001
1000
0100
1000
0100
0010
0001
0010
,
0001
0000
0000
1000
0000
0000
0100
0000
0000
1000
0000
0000
0100
0000
0000
0010
0000
0000
0001
0000
0000
0010
0000
0000
0001
0000
0000
1000
0000
0000
0100
0000
0000
1000
0000
0000
0100
0000
0010
0000
0001
0000
0100
0000
0010
0000
1000
0000
,
0200
0000
0300
0000
1001
0000
0010
1000
,
0100
0000
0000
0010
0000
0000
0001
0000
0001
0010
0100
0010
0001
0010
0100
0010
,
0001
0000
0000
1000
0000
0000
0100
0000
1000
0000
0001
0000
0010
0000
0100
0000
,
0010
0101
1100
0011
,
1010
0000
0000
0000
1001
0000
0101
1001
0000
0000
0000
0000
1100
0000
0011
0000
,
1100
0000
0000
0000
1100
1100
1100
1100
1100
0000
0000
0000
0000
0000
0011
0011
,
0011
0000
0000
1010
0000
0000
0110
0000
0110
0000
0000
0000
0000
0000
0101
0101
,
0101
0000
0000
0000
1001
1001
1001
0000
0200
0000
0000
0011
0300
0000
1001
0000
,
0100
0000
0000
0000
0010
0000
0001
1000
0000
0000
0000
0100
0100
0100
0100
0100
,
0110
0000
0000
0001
0001
0001
0001
0001
0011
0000
0000
1000
1000
1000
1000
1000
,
1100
0000
0000
0000
0000
0000
0000
0000
0000
0010
0000
0000
0010
0000
0000
0010
0000
0000
0010
0000
0000
0010
0000
0000
0110
0000
0000
0000
0000
0000
0000
0000
0000
0000
0000
0000
0001
0000
0000
1000
0000
0000
0100
0000
0010
0000
0001
0000
,
0200
0010
0300
0010
0010
0000
0010
0000
,
1001
0100
1010
0001
1000
0100
1010
0001
1000
0010
1100
0001
0100
1000
0101
0010
,
1000
0100
1010
0001
0010
0100
1001
0010
0100
0001
1100
0010
1000
0100
1010
0001
,
0100
0010
1100
0001
0100
1000
0101
1000
0100
0010
1001
0100
1000
0010
1001
0100
,
0010
0001
1100
0010
1000
0100
1010
0001
0100
1000
0110
0001
0010
1000
0110
0001
,
1000
0010
1001
0100
0010
0001
1100
0010
1000
0100
1010
0001
0100
1000
0110
0001
,
0010
1000
0110
0001
1000
0010
1001
0100
0010
0001
1100
0010
1000
0100
1010
0001
,
1000
0100
1010
0001
0100
0010
1100
0001
1000
0001
1010
0100
0010
0001
1100
0010
,
0100
0000
0000
0010
0000
0000
0101
0000
0000
1000
0000
0000
0100
0000
0000
0010
0000
0000
1001
0000
0000
0100
0000
0000
0010
0000
0100
0000
1000
0000
0001
0000
0010
0000
0100
0000
1000
0000
0100
0000
0010
0000
0001
0000
1000
0000
0001
0000
,
0200
0000
0000
0010
0000
0000
0310
0000
0000
0000
0000
0000
0000
0000
0100
1000
,
0100
0010
0001
0010
0100
1000
0100
1000
0100
0001
0010
0100
1000
0001
0100
0010
,
1000
0000
0000
0000
0000
0000
0100
0000
0000
0000
0000
0000
0010
0000
0000
0000
0000
0000
0001
0000
0000
0000
0000
0000
1000
0000
0000
0000
0000
0000
0100
0000
0000
0000
0000
0000
0010
0000
0000
0000
0000
0000
0001
0000
0000
0000
0000
0000
1000
0000
0000
0000
0000
0000
0100
0000
0000
0000
0000
0000
0010
0000
0000
0000
0000
0000
0001
0000
0000
0000
0000
0000
1000
0000
0000
0000
0000
0000
0000
0000
0100
0000
0000
0000
0000
0000
0000
0000
0010
0000
0000
0000
0000
0000
0000
0000
0001
0000
0000
0000
0000
0000
0000
0000
0100
0000
0000
0000
0000
0000
0000
0000
0010
0000
0000
0000
0000
0000
0000
0000
1000
0000
0000
0000
0000
0000
0000
0000
0100
0000
0000
0000
0000
0000
0000
0000
0010
0000
0000
0000
0000
0000
0000
0000
0100
0000
0000
0000
0000
0000
0000
0000
1000
0000
0000
0000
0000
0000
0000
0000
0100
0000
0000
0000
0000
0000
0000
0000
0010
0000
0000
0000
0000
0000
0000
0000
0001
0000
0000
0000
0000
0000
0000
0000
0100
0000
0000
0000
0000
0000
0000
0000
,
0010
0000
1000
0000
0001
0000
1000
0000
0001
0000
1000
0000
0001
0000
0010
0000
0100
0000
1000
0000
0001
0000
0010
0000
0200
0000
0000
0000
0000
0000
0300
0000
0000
1000
0000
0000
0000
0000
0000
0000
0000
0000
0001
0000
0000
0000
0000
0000
,
1000
0000
0110
0001
1000
0100
1010
0001
0010
0100
1001
0010
1000
0100
1001
0010
,
1000
0010
0101
1000
0010
1000
0101
0010
0001
0100
0011
1000
0100
0010
1001
0100
,
1000
0100
1001
0010
1000
0010
0101
1000
0010
0100
1010
0001
0100
0010
1001
0100
,
0010
0001
0110
1000
0100
0001
0110
1000
0010
0001
1100
0010
0100
0010
1100
0001
,
0100
0001
1100
0010
0001
0100
0010
0010
0110
0010
0110
0010
0010
0010
0100
0100
,
0110
0100
0110
0100
0100
0100
0010
0010
0011
0010
0011
0010
0010
0010
1000
1000
,
1001
1000
1001
1000
1000
1000
0001
0001
1001
0001
1001
0001
0001
0001
0010
0010
,
0110
0010
0010
0110
0010
0010
1100
0100
1100
0100
0100
0110
0100
0100
1001
0100
,
1000
0001
1010
0100
0010
0001
1010
0100
1000
0001
0110
1000
0100
0001
1100
0010
,
0001
1000
0011
1000
0100
0010
1001
0100
0010
0001
1010
0100
1000
0010
1100
0010
,
0100
0010
0101
0010
0001
0010
0101
1000
0010
0100
1010
0100
0001
0010
1100
0010
,
0001
1000
0011
1000
0100
0010
1001
0100
0010
0100
0011
0100
1000
0100
1001
0010
,
1000
0010
0101
1000
0010
1000
0110
1000
0010
0101
1010
0100
0001
1000
0101
0010
,
1000
0100
0010
1001
0100
0010
0100
0010
1000
0101
1000
0100
0010
0001
0010
0101
1000
0100
0010
0001
0100
0011
1000
0100
,
0010
0100
1001
0010
0100
1000
0101
0010
0100
1000
0101
0010
0001
0100
0011
1000
,
0101
0000
0000
1000
0000
0000
0101
0000
0000
0010
0000
0000
0001
0000
0000
1000
0000
0000
0011
0000
0000
1100
0000
0000
0011
0000
0000
1100
0000
0000
0011
0000
0000
1100
0000
0000
0011
0000
0000
1100
0000
0000
0011
0000
1000
0000
0001
0000
,
1000
0000
0100
0000
1000
0000
0011
0000
0000
0100
0000
0000
0001
0000
0000
0010
0000
0000
0101
0000
0000
0010
0000
0000
1001
0000
0000
0100
0000
0000
1001
0000
0000
0100
0000
0000
1001
0000
0000
0010
0000
0000
0101
0000
0000
1000
0000
0000
,
0110
0001
0110
1000
0110
0001
1100
0010
1001
0100
1010
0001
1100
0010
1001
0100
,
1010
0001
1100
0010
0101
0010
0101
0010
1001
0100
1001
0100
1010
0100
1010
0001
,
1010
0100
1001
0010
1100
0010
0101
0010
0101
1000
0110
0001
1100
0010
1100
0001
,
1010
1010
1010
1010
0000
0000
0000
1001
0110
1001
0110
0000
0000
0011
1100
0101
,
2020
0000
0000
0000
0000
0000
0000
0000
0000
0000
0000
0000
0000
0000
0000
0000
3030
0000
0000
0010
0001
1000
0100
0000
1111
0000
0000
0000
1100
0000
0000
0000
,
0011
0000
0000
0000
;
